DNS SERVER ÄNDERN, um der staatlichen Zensur zu umgehen. Sollten wir von eurem Provider gesperrt werden, nutzt den TOR BROWSER oder ändert euren DNS SERVER.

Filmwünsche können bei uns im Forum abgegeben werden

Wir Speichern Nicht




 
 
 
Top Releases
Das.Haus.der.geheimnisvollen...
Leave.No.Trace.2018.German.D...
Leave.No.Trace.2018.German.D...
Das.Haus.der.geheimnisvollen...
Alpha.2018.German.1080p.DL.D...
Alpha.2018.German.DTS.DL.108...
Manchester.by.the.Sea.2016.G...
Summer.of.84.2018.German.DL....
Mile.22.2018.German.DL.AC3.D...
Mile.22.2018.German.DL.AC3.D...

Cinedubs
Dont.Worry.weglaufen.geht.ni...
Dont.Worry.weglaufen.geht.ni...
Gaensehaut.2.Gruseliges.Hall...
Aquaman.TS.LD.German.DL.720p...
Eho.Echo.German.720p.WEBRip....
Eho.Echo.German.1080p.WEBRip...
Bad.Times.at.the.El.Royale.2...
Bad.Spies.2018.German.DL.AC3...
Aquaman.2018.GERMAN.AC3.MD.7...
Bad.Spies.German.DL.AC3.Dubb...

Neuerscheinungen 2018-19
Same.Same.But.Different.2009...
Ab.durch.die.Hecke.Over.The....
Ein.verlockendes.Spiel.2008....
Ein.verlockendes.Spiel.2008....
Welcome.Home.2018.German.AC3...
Der.mit.dem.Schlag.2016.GERM...
Kryo.2016.GERMAN.720p.HDTV.x...
The.Nun.2018.MULTi.COMPLETE....
Mein.bester.Feind.German.AC3...
Superfly.2018.German.AC3.5.1...

XXX
WildOnCam.18.12.25.Bridgette...
TransAngels.18.10.13.Natassi...
X-Art.18.12.27.Nella.And.Nik...
SugarDaddyPORN.18.12.24.Sofi...
ZeroTolerance.18.12.25.Miche...
WankItNow.18.12.27.Kayla.Lou...
VickyAtHome.18.12.22.All.I.W...
TransAngels.18.11.29.Katrina...
TransAngels.18.10.06.Miran.I...
SlutStepSister.18.12.25.Jenn...
WetAndPuffy.18.12.26.Kate.Fr...
Sounds.Of.Fury.XXX.1080p.WEB...
TransAngels.18.11.01.Jesse.F...
TransAngels.18.09.13.Kayleig...
Yanks.18.12.25.Envy.Fucks.He...
SweetSinner.18.12.25.Emma.Hi...
TransAngels.18.12.20.Natalie...
TransAngels.18.11.10.Miran.U...
TransAngels.18.09.22.Domino....
StraplessDildo.18.12.26.Jia....

3D
Blade.Runner.2049.3D.2017.Ge...
Walhalla.Rising.3D.2009.DUAL...
Sleepwalker.3D.2011.DUAL.COM...
Bis.an.die.Grenzen.des.Unive...
Best.of.3D.vol.13.-.15.GERMA...
Limbradur.und.die.Magie.der....
Kaluoka.Hina.Das.Zauberriff....
Limbradur.und.die.Magie.der....
Smallfoot.3D.2018.COMPLETE.B...
Smallfoot.Ein.eisigartiges.A...
Skyscraper.3D.2018.German.DL...
Meg.3D.2018.MULTi.COMPLETE.B...
Meg.3D.2018.German.DL.1080p....
Gans.im.Glueck.3D.2018.MULTi...
The.Art.of.Flight.3D.2011.Ge...

Old_Stuff
Todfreunde.aka.Bad.Influence...
Animatrix.2003.German.DL.108...
Animatrix.2003.German.DL.720...
Akte.X.S06.German.DTS.DL.108...
The.Beauty.of.Gemina.Minor.S...
ZZ.Top.Live.from.Texas.2008....
Peter.Hase.2018.German.DL.10...
Akte.X.S05.German.DTS.DL.108...
Akte.X.S04.German.DTS.DL.108...
Akte.X.S03.German.DTS.DL.108...
Dunkirk.1958.COMPLETE.BLURAY...
Das.Wunder.von.Manhattan.199...
The.Amazing.Spiderman.2.Rise...
Rise.of.the.Predator.2014.Ge...
Detective.Dee.und.das.Geheim...

Filme
Orange.is.the.New.Black.S01-...
Killjoys.S04.GERMAN.DL.720p....
Killjoys.S04.GERMAN.DL.1080p...
iZombie.S04.German.DD51.Dubb...
iZombie.S04.German.DD51.Dubb...
Carter.S01.GERMAN.DL.1080p.H...
Carter.S01.GERMAN.DL.720p.HD...
9.1.1.S02.GERMAN.DL.1080p.HD...
9.1.1.S02.GERMAN.DL.720p.HDT...
Abenteuer.in.Rio.L.homme.de....
The.Good.Doctor.S02.German.D...
The.Good.Doctor.S02.German.D...
Berlin.Station.S03.GERMAN.DL...
Berlin.Station.S03.GERMAN.72...
A.Star.is.Born.2018.German.A...
Die.Rueckkehr.des.Eisvogels....
Leaves.of.Grass.2009.German....
Die.Wendeltreppe.1946.German...
The.Saint.-.Der.Mann.ohne.Na...
The.Saint.-.Der.Mann.ohne.Na...
360.Grad.Geo.Reportage.E511....
Smallfoot.Ein.eisigartiges.A...
Sherlock.Holmes.Das.Haus.des...
Sherlock.Holmes.Das.Zeichen....

 
 
Skyscraper.3D.2018.German.DL.1080p.BluRay.x264-BluRay3D

Jahr: 2018
Genre: Blu-ray 3D, Thriller, Action
Sprache: Deutsch AC3 | Englisch AC3
Laufzeit: 1h 42mn
Bitrate: 6 177 Kbps
Format: MKV
Größe: 4.42 GiB
Release:

Beschreibung:

Schwindelerregende Action, atemberaubende Spannung und Superstar Dwayne Johnson, als Kriegsveteranen und ehemaliger FBI-Einsatzchef Will Sawyer (Dwayne Johnson), der im The Pearl, dem höchsten Wolkenkratzer der Welt, für Sicherheit sorgen soll. Kaum hat er sein Amt angetreten, kommt es zur verhängnisvollen Katastrophe: Die 96. Etage steht plötzlich in Flammen. Wills Familie ist dem flammenden Inferno ausgeliefert und er selbst wird der Brandstiftung beschuldigt. Verzweifelt versucht Sawyer, die Brandstifter zu finden, seine Familie aus dem flammenden Inferno zu retten und seine Unschuld zu beweisen



Complete name                            : br3dskyscraper_1080p.mkv
Format                                   : Matroska
Format version                           : Version 4 / Version 2
File size                                : 4.42 GiB
Duration                                 : 1h 42mn
Overall bit rate                         : 6 177 Kbps
Encoded date                             : UTC 2018-12-20 13:00:18
Writing application                      : mkvmerge v19.0.0 ('Brave Captain') 64-bit
Writing library                          : libebml v1.3.5 + libmatroska v1.4.8
DURATION                                 : 01:05:43.846000000
NUMBER_OF_FRAMES                         : 62
NUMBER_OF_BYTES                          : 630358
_STATISTICS_WRITING_APP                  : mkvmerge v19.0.0 ('Brave Captain') 64-bit
_STATISTICS_WRITING_DATE_UTC             : 2018-12-20 13:00:18
_STATISTICS_TAGS                         : BPS DURATION NUMBER_OF_FRAMES NUMBER_OF_BYTES

Video
ID                                       : 1
Format                                   : AVC
Format/Info                              : Advanced Video Codec
Format profile                           : High@L4.1
MultiView_Count                          : 2
MultiView_Layout                         : Side by Side (left eye first)
Format settings, CABAC                   : Yes
Format settings, ReFrames                : 5 frames
Codec ID                                 : V_MPEG4/ISO/AVC
Duration                                 : 1h 42mn
Bit rate                                 : 5 158 Kbps
Width                                    : 1 920 pixels
Height                                   : 800 pixels
Display aspect ratio                     : 2.40:1
Frame rate mode                          : Constant
Frame rate                               : 23.976 fps
Color space                              : YUV
Chroma subsampling                       : 4:2:0
Bit depth                                : 8 bits
Scan type                                : Progressive
Bits/(Pixel*Frame)                       : 0.140
Stream size                              : 3.69 GiB (84%)
Writing library                          : x264 core 157 r2935 545de2f
Encoding settings                        : cabac=1 / ref=5 / deblock=1:-1:-1 / analyse=0x3:0x133 / me=umh / subme=7 / psy=1 / psy_rd=1.00:0.15 / mixed_ref=1 / me_range=16 / chroma_me=1 / trellis=1 / 8x8dct=1 / cqm=0 / deadzone=21,11 / fast_pskip=0 / chroma_qp_offset=-3 / threads=16 / lookahead_threads=2 / sliced_threads=0 / nr=0 / decimate=1 / interlaced=0 / bluray_compat=0 / constrained_intra=0 / bframes=3 / b_pyramid=2 / b_adapt=1 / b_bias=0 / direct=1 / weightb=1 / open_gop=0 / weightp=2 / keyint=250 / keyint_min=23 / scenecut=40 / intra_refresh=0 / rc_lookahead=40 / rc=crf / mbtree=1 / crf=20.0 / qcomp=0.60 / qpmin=0 / qpmax=69 / qpstep=4 / ip_ratio=1.40 / aq=1:1.00
Default                                  : Yes
Forced                                   : No

Audio #1
ID                                       : 2
Format                                   : AC-3
Format/Info                              : Audio Coding 3
Mode extension                           : CM (complete main)
Format settings, Endianness              : Big
Codec ID                                 : A_AC3
Duration                                 : 1h 42mn
Bit rate mode                            : Constant
Bit rate                                 : 448 Kbps
Channel(s)                               : 6 channels
Channel positions                        : Front: L C R, Side: L R, LFE
Sampling rate                            : 48.0 KHz
Bit depth                                : 16 bits
Compression mode                         : Lossy
Stream size                              : 328 MiB (7%)
Language                                 : German
Default                                  : Yes
Forced                                   : No

Audio #2
ID                                       : 3
Format                                   : AC-3
Format/Info                              : Audio Coding 3
Mode extension                           : CM (complete main)
Format settings, Endianness              : Big
Codec ID                                 : A_AC3
Duration                                 : 1h 42mn
Bit rate mode                            : Constant
Bit rate                                 : 448 Kbps
Channel(s)                               : 6 channels
Channel positions                        : Front: L C R, Side: L R, LFE
Sampling rate                            : 48.0 KHz
Bit depth                                : 16 bits
Compression mode                         : Lossy
Stream size                              : 328 MiB (7%)
Language                                 : English
Default                                  : No
Forced                                   : No

Text #1
ID                                       : 4
Format                                   : VobSub
Muxing mode                              : zlib
Codec ID                                 : S_VOBSUB
Codec ID/Info                            : The same subtitle format used on DVDs
Language                                 : German
Default                                  : Yes
Forced                                   : Yes

Text #2
ID                                       : 5
Format                                   : VobSub
Muxing mode                              : zlib
Codec ID                                 : S_VOBSUB
Codec ID/Info                            : The same subtitle format used on DVDs
Language                                 : English
Default                                  : No
Forced                                   : No


Download:
Share Online Share OnlineShare OnlineShare Online
 

Kommentare