DNS SERVER ÄNDERN, um der staatlichen Zensur zu umgehen. Sollten wir von eurem Provider gesperrt werden, nutzt den TOR BROWSER oder ändert euren DNS SERVER.

Filmwünsche können bei uns im Forum abgegeben werden

Wir Speichern Nicht




 
 
 
Top Releases
Upgrade.2018.German.DL.1080p...
Upgrade.2018.German.720p.Blu...
Upgrade.2018.MULTI.COMPLETE....
Durch.die.Wand.The.Dawn.Wall...
Forever.My.Girl.2018.DUAL.CO...
Forever.My.Girl.German.DL.10...
Forever.My.Girl.German.720p....
LBJ.2016.German.AC3.DL.1080p...
American.Animals.2018.German...
Alpha.2018.German.AC3.DL.108...

Cinedubs
Bumblebee.2018.German.DL.AC3...
Bumblebee.2018.German.DL.AC3...
Der.Nussknacker.und.die.vier...
Dont.Worry.weglaufen.geht.ni...
Dont.Worry.weglaufen.geht.ni...
Gaensehaut.2.Gruseliges.Hall...
Aquaman.TS.LD.German.DL.720p...
Eho.Echo.German.720p.WEBRip....
Eho.Echo.German.1080p.WEBRip...
Bad.Times.at.the.El.Royale.2...

Neuerscheinungen 2018-19
Gott.ist.nicht.tot.Ein.Licht...
Narziss.und.Psyche.Narcissus...
Trauma.Das.Boese.verlangt.Lo...
Trauma.Das.Boese.verlangt.Lo...
Gott.ist.nicht.tot.Ein.Licht...
The.Domestics.2018.DUAL.COMP...
Trauma.Das.Boese.verlangt.Lo...
The.Domestics.German.DL.1080...
The.Domestics.German.720p.Bl...
IO.2019.German.DL.1080p.WEB....

XXX
Teenage.Bedroom.Secrets.4.XX...
Nerd.Pervert.Vol.38.XXX.1080...
CherryPimps.19.01.10.Elsa.Je...
FiLFExtra.E41.Kendall.Kayden...
FoxxedUp.19.01.09.Young.Mist...
FakeTaxi.19.01.13.Madison.Ph...
ATKGirlfriends.19.01.10.Emil...
MommyBlowsBest.19.01.09.Jasm...
MomXXX.19.01.10.Alyssa.Reece...
MomPov.E427.Amehlia.XXX.1080...
GirlsGoneWild.19.01.10.Valen...
ErotiqueTVLive.18.07.07.Jay....
BuccWild.18.05.27.Pregnant.E...
FiLFExtra.E38.Kiara.Knight.A...
MommyGotBoobs.19.01.12.Ava.A...
MomsLickTeens.19.01.09.Londo...
MatureNL.19.01.09.Gina.Feroc...
ThaiGirlsWild.18.12.31.Coco....
CreampieInAsia.19.01.11.Lany...
KarupsOW.19.01.07.Angelica.L...

3D
Blade.Runner.2049.3D.2017.Ge...
Walhalla.Rising.3D.2009.DUAL...
Sleepwalker.3D.2011.DUAL.COM...
Bis.an.die.Grenzen.des.Unive...
Best.of.3D.vol.13.-.15.GERMA...
Limbradur.und.die.Magie.der....
Kaluoka.Hina.Das.Zauberriff....
Limbradur.und.die.Magie.der....
Smallfoot.3D.2018.COMPLETE.B...
Smallfoot.Ein.eisigartiges.A...
Skyscraper.3D.2018.German.DL...
Meg.3D.2018.MULTi.COMPLETE.B...
Meg.3D.2018.German.DL.1080p....
Gans.im.Glueck.3D.2018.MULTi...
The.Art.of.Flight.3D.2011.Ge...

Old_Stuff
Todfreunde.aka.Bad.Influence...
Animatrix.2003.German.DL.108...
Animatrix.2003.German.DL.720...
Akte.X.S06.German.DTS.DL.108...
The.Beauty.of.Gemina.Minor.S...
ZZ.Top.Live.from.Texas.2008....
Peter.Hase.2018.German.DL.10...
Akte.X.S05.German.DTS.DL.108...
Akte.X.S04.German.DTS.DL.108...
Akte.X.S03.German.DTS.DL.108...
Dunkirk.1958.COMPLETE.BLURAY...
Das.Wunder.von.Manhattan.199...
The.Amazing.Spiderman.2.Rise...
Rise.of.the.Predator.2014.Ge...
Detective.Dee.und.das.Geheim...

Filme
Der.Manitou.-.Geburt.des.Dae...
Die.Schneekoenigin.2016.GERM...
Black.Book.2006.German.DL.AC...
Grosse.Haie.Kleine.Fische.20...
Sling.Blade.Auf.Messers.Schn...
Das.weisse.Zauberpferd.1992....
Das.weisse.Zauberpferd.1992....
Star.Trek.Discovery.S02.Germ...
Ray.Donovan.S06.GERMAN.DUBBE...
Ray.Donovan.S06.GERMAN.DUBBE...
Brennender.Hass.1989.GERMAN....
Brennender.Hass.1989.GERMAN....
Bugsy.1991.GERMAN.1080p.HDTV...
Bugsy.1991.GERMAN.720p.HDTV....
Gott.ist.nicht.tot.Ein.Licht...
Airforce.Two.2006.GERMAN.108...
Airforce.Two.2006.GERMAN.720...
Upgrade.2018.German.DL.1080p...
Ab.durch.die.Hecke.2006.Germ...
American.Animals.2018.German...
Battle.in.Seattle.2007.Germa...
The.Guilty.2018.German.DL.10...
Grace.und.Frankie.S05.COMPLE...
Paranoiac.Haus.des.Grauens.1...

 
 
Escape.Plan.2.Hades.2018.German.AC3.1080p.BluRay.x265-GTF

Jahr: 2018
Genre: Action, Thriller
Sprache: Deutsch AC3
Laufzeit: 1h 36mn
Bitrate: 4 200 Kbps
Format: MKV
Größe: 2.83 GiB
Release:

Beschreibung:

Ray Breslin (Sylvester Stallone) und sein Team sind darauf spezialisiert, selbst aus den sichersten Gefängnissen der Welt Menschen zu befreien. Doch dann wird Breslins bester Agent Shu Ren (Xiaoming Huang) entführt und in einem High-Tech-Gefängnis eingesperrt, das so modern ist, wie kein anderer Knast zuvor. Für Breslin scheint es keine Möglichkeit zu geben, seinen Mitarbeiter zu befreien, zumal das Gefängnis sogar stetig seine Form verändert, es also keinerlei Plan gibt. Doch gemeinsam mit unter anderem Tech-Experte Hush (Curtis Jackson) ist Breslin wild entschlossen, trotzdem einen Weg zu finden…



Complete name                            : gtf-escapeplan2.mkv
Format                                   : Matroska
Format version                           : Version 4 / Version 2
File size                                : 2.83 GiB
Duration                                 : 1h 36mn
Overall bit rate                         : 4 200 Kbps
Movie name                               : gtf-escapeplan2.mkv
Encoded date                             : UTC 2019-01-09 01:35:57
Writing application                      : mkvmerge v30.1.0 ('Forever And More') 64-bit
Writing library                          : libebml v1.3.6 + libmatroska v1.4.9

Video
ID                                       : 1
Format                                   : HEVC
Format/Info                              : High Efficiency Video Coding
Format profile                           : Main@L4.0
Codec ID                                 : V_MPEGH/ISO/HEVC
Duration                                 : 1h 36mn
Bit rate                                 : 3 733 Kbps
Width                                    : 1 920 pixels
Height                                   : 804 pixels
Display aspect ratio                     : 2.40:1
Frame rate mode                          : Constant
Frame rate                               : 23.976 fps
Color space                              : YUV
Chroma subsampling                       : 4:2:0
Bit depth                                : 8 bits
Bits/(Pixel*Frame)                       : 0.101
Stream size                              : 2.52 GiB (89%)
Writing library                          : x265 2.6:[Windows][GCC 7.3.0][64 bit] 8bit+10bit+12bit
Encoding settings                        : cpuid=1173503 / frame-threads=3 / numa-pools=8 / wpp / no-pmode / no-pme / no-psnr / no-ssim / log-level=2 / input-csp=1 / input-res=1920x804 / interlace=0 / total-frames=0 / level-idc=0 / high-tier=1 / uhd-bd=0 / ref=3 / no-allow-non-conformance / no-repeat-headers / annexb / no-aud / no-hrd / info / hash=0 / no-temporal-layers / open-gop / min-keyint=24 / keyint=240 / bframes=4 / b-adapt=2 / b-pyramid / bframe-bias=0 / rc-lookahead=20 / lookahead-slices=5 / scenecut=40 / no-intra-refresh / ctu=64 / min-cu-size=8 / no-rect / no-amp / max-tu-size=32 / tu-inter-depth=1 / tu-intra-depth=1 / limit-tu=0 / rdoq-level=0 / dynamic-rd=0.00 / no-ssim-rd / signhide / no-tskip / nr-intra=0 / nr-inter=0 / no-constrained-intra / no-strong-intra-smoothing / max-merge=2 / limit-refs=3 / no-limit-modes / me=1 / subme=2 / merange=57 / temporal-mvp / weightp / no-weightb / no-analyze-src-pics / deblock=0:0 / no-sao / no-sao-non-deblock / rd=3 / no-early-skip / rskip / no-fast-intra / no-tskip-fast / no-cu-lossless / no-b-intra / no-splitrd-skip / rdpenalty=0 / psy-rd=2.00 / psy-rdoq=0.00 / no-rd-refine / analysis-reuse-mode=0 / no-lossless / cbqpoffs=0 / crqpoffs=0 / rc=crf / crf=20.0 / qcomp=0.60 / qpstep=4 / stats-write=0 / stats-read=0 / ipratio=1.40 / pbratio=1.30 / aq-mode=1 / aq-strength=1.00 / cutree / zone-count=0 / no-strict-cbr / qg-size=32 / no-rc-grain / qpmax=69 / qpmin=0 / no-const-vbv / sar=1 / overscan=0 / videoformat=5 / range=0 / colorprim=1 / transfer=1 / colormatrix=1 / chromaloc=0 / display-window=0 / max-cll=0,0 / min-luma=0 / max-luma=255 / log2-max-poc-lsb=8 / vui-timing-info / vui-hrd-info / slices=1 / no-opt-qp-pps / no-opt-ref-list-length-pps / no-multi-pass-opt-rps / scenecut-bias=0.05 / no-opt-cu-delta-qp / no-aq-motion / no-hdr / no-hdr-opt / no-dhdr10-opt / analysis-reuse-level=5 / scale-factor=0 / refine-intra=0 / refine-inter=0 / refine-mv=0 / no-limit-sao / ctu-info=0 / no-lowpass-dct / refine-mv-type=0 / copy-pic=1
Default                                  : Yes
Forced                                   : No
DURATION                                 : 01:36:32.454000000
NUMBER_OF_FRAMES                         : 138880
NUMBER_OF_BYTES                          : 2761891115
_STATISTICS_WRITING_APP                  : mkvmerge v30.1.0 ('Forever And More') 64-bit
_STATISTICS_WRITING_DATE_UTC             : 2019-01-09 01:35:57
_STATISTICS_TAGS                         : BPS DURATION NUMBER_OF_FRAMES NUMBER_OF_BYTES

Audio
ID                                       : 2
Format                                   : AC-3
Format/Info                              : Audio Coding 3
Mode extension                           : CM (complete main)
Format settings, Endianness              : Big
Codec ID                                 : A_AC3
Duration                                 : 1h 36mn
Bit rate mode                            : Constant
Bit rate                                 : 384 Kbps
Channel(s)                               : 6 channels
Channel positions                        : Front: L C R, Side: L R, LFE
Sampling rate                            : 48.0 KHz
Bit depth                                : 16 bits
Compression mode                         : Lossy
Stream size                              : 265 MiB (9%)
Title                                    : Surround
Language                                 : German
Default                                  : Yes
Forced                                   : No
DURATION                                 : 01:36:32.448000000
NUMBER_OF_FRAMES                         : 181014
NUMBER_OF_BYTES                          : 278037504
_STATISTICS_WRITING_APP                  : mkvmerge v30.1.0 ('Forever And More') 64-bit
_STATISTICS_WRITING_DATE_UTC             : 2019-01-09 01:35:57
_STATISTICS_TAGS                         : BPS DURATION NUMBER_OF_FRAMES NUMBER_OF_BYTES


Download:
Share Online Share OnlineShare OnlineShare Online
 

Kommentare